Карта сайта

Это автоматически сохраненная страница от 03.12.2013. Оригинал был здесь: http://2ch.hk/b/res/58339343.html
Сайт a2ch.ru не связан с авторами и содержимым страницы
жалоба / abuse: admin@a2ch.ru

Втр 03 Дек 2013 15:52:22
Просто вопрос
Антон, я тут угорел по просмотру фильмов на языке оригинала с английскими же субтитрами.
Качаю с пиратбэя естественно.
Так вот, там есть некто YIFY, который раньше всех выкладывает релизы.
А вопрос вот в чем.
Он кладет фильмы весом 1.5-2 ГБ в 1080 качестве.
Как это возможно?
Я никогда сильно не интересовался всей этой фигней с кодеками, сжатием видео и т.д.
Но я привык что ХД кино весит от 4-5 гигов, а тут такой маленький размер и такое хорошее качество.
Был прорыв в кодировании видео или чо?
Расскажите, интересно ж.


Втр 03 Дек 2013 15:59:01
Не качаю рипы (только bdmv, только хардкор), но подозреваю, что чувак занижает битрейт и его релизы хуево смотрятся на нормальных тв (от 50")

Втр 03 Дек 2013 15:59:42
>>58339343
> 1080 качестве
Нету такого качество. 1080 это просто расширение. Вот тебе трехкилобайтовый пикрелейтед в 1080-качестве, лол.

Втр 03 Дек 2013 16:01:07
>>58339640
Ну суть то вопрос ты понял ведь, няша?

Втр 03 Дек 2013 16:05:12
>>58339695
Битрейт занижает+дрочево с кодированием в много проходов.
Алсо как уже говорили на большом тв будет смотреться по еблански.
Никаких новых кодеков вроде не было. Х264 наше все. Ну и малоюзаемый теора.

Втр 03 Дек 2013 16:08:23
>>58339850
Вообщем понятно.
Он просто из этих, которые делают все лучше всех, тщательнее всех и раньше всех.
На таких людях держится все.
Респект им и все такое.
Пойду смотреть кинцо.

Втр 03 Дек 2013 16:09:14
>>58339695
Короче, качество отражаеться в битрейте. Битрейт это колличество цифровой информации на каждую секунду видео. К примеру возьмем битрейт видео 15Мбит/с (это походу меньше чем bluray но больше HDTV). В 1 байта 8 бит, соответсвенно получиться (15*1024)/8=1920 килобайт в секунду. Обычно фильм идет 100 минут а это 6000 секунд, получаеться около 18 гигабайт на фильм. Ну еще у аудиодорожки есть битрейт но он намного ниже чем у видео и мы его не будем учитывать. Так вот, в 2ГБ рипе почти нихуя нету информации по этому качество очень далеко от оригинала. Скачай как-то для развития BD-Remux (в среднем около 30Гб за фильм) и узнай, что такое качество.
А 1080/720 это всего лишь разрешение видео. Просто выше некого объема информации уже не имеет смысла вмещать в 480 или 720 пикселей, с другой стороны совершенно не имеет смысла растягивать 2 мегабита на 1080р.

Втр 03 Дек 2013 16:11:52
>>58340003
Добра тебе.

> Скачай как-то для развития BD-Remux (в среднем около 30Гб за фильм) и узнай, что такое качество.

А если у меня монитор с разрешением 1920х1080, есть смысл вообще это качать? Или оно нужно только для телевизора?

А то я наверное и разницы не замечу.

Втр 03 Дек 2013 16:13:02
>Так вот, там есть некто YIFY, который раньше всех выкладывает релизы.
>Он просто из этих, которые делают все лучше всех, тщательнее всех и раньше всех.
>На таких людях держится все.
>Респект им и все такое.
>Пойду смотреть кинцо.

Втр 03 Дек 2013 16:15:22
>>58340165

Лоол.

Давно хотел пересмотреть. Как там, 2й сезон уже сняли?

Втр 03 Дек 2013 16:16:30
http://www.rtings.com/info/what-is-the-best-distance-to-watch-tv

> есть смысл вообще это качать
Смысла в таком вообще нет, это уже дрочерство. Просто разок для саморазвития. Ну или терабайтный винт и 100мбит канал, тогда тоже можно, хуле уже. А качать каждый фильм по две сутки это конечно бред

Втр 03 Дек 2013 16:17:28
>>58339343
ПАСТА С ФОРЧАНА, РАСХОДИМСЯ

Anton, I've been watching films on carbon monoxide poisoning in their original language with English subtitles same.
Shake with piratbeya naturally.
So, is there someone YIFY, which puts before all releases.
And the question is this.
He puts movies weighing 1.5-2 GB in 1080 as.
How is this possible?
I've not much interested in all this garbage with codecs, video compression, etc.
But I used that HD movie weighs 4-5 gigs, but here such a small size and is good quality.
Was a breakthrough in video encoding or Cho?
Tell wondering w.

Втр 03 Дек 2013 16:18:36
>>58340360
А, НЕ, ВСЁ НОРМ, ЭТО НА ФОРЧАНЕ С ДВАЧА КОПИПАСТНУЛИ

Антон, я наблюдал фильмы на отравления угарным газом на языке оригинала с английскими субтитрами же.
Встряхнуть с piratbeya естественно.
Итак, есть ли кто-то YIFY, которые ставит перед всеми релизов.
И вопрос заключается в следующем.
Он ставит фильмы весом 1, 5-2 Гб в 1080 году как.
Как это возможно?
Я не очень заинтересованы во всей этой мусора с кодеками, сжатия видео и т.д.
Но я использовал это HD фильм весит 4-5 концертов, а тут такой маленький размер и хорошее качество.
Был прорыв в кодировании видео или Чо?
Расскажи интересно со.

Втр 03 Дек 2013 16:18:47
>>58340269

Вроде как сняли, но мне сюжет не очень понравился, хотя он годный. Посмотри, может понравится. Но выдержка и стиль остались.

Втр 03 Дек 2013 16:18:51
>>58339343 >>58339967
Это не один человек, а релиз группа.

Втр 03 Дек 2013 16:21:00
>>58339343
>Антон, я тут угорел по просмотру фильмов на языке оригинала с английскими же субтитрами.
>>58340360
>Anton, I've been watching films on carbon monoxide poisoning in their original language with English subtitles same.
>>58340407
>Антон, я наблюдал фильмы на отравления угарным газом на языке оригинала с английскими субтитрами же.
...

Втр 03 Дек 2013 16:21:43
>>58340407
>маленький размер и хорошее качество
Утешение коротышей.

Втр 03 Дек 2013 16:25:22
>>58340419

Глянул сюжетик, вроде же норм.

Втр 03 Дек 2013 16:28:10
>>58340724

Ну так то оно да, но как то все вяло. По сравнению с первым сезоном вообще очень вяло.

Втр 03 Дек 2013 16:38:49
>>58339343
Ну, собственно, ничего необычного здесь нет..

Втр 03 Дек 2013 17:23:27
>>58339343
Скинь медиа инфо, посмотрим балуется ли твой друг онанизмом, деблокингом, фильтрами какими.

Втр 03 Дек 2013 17:33:14
>>58343523
Расскажи - как это сделать?

Втр 03 Дек 2013 17:35:54

Втр 03 Дек 2013 17:40:19
>>58344015
Госпади! зачем им фулХД!Прости им ибо не знают что далеют!
береш медиаплеер хомсинема открываеш свой супер релиз нажимаеш свойства в окне открытого фильма и переходиш во вкладку медиаинфо и копируеш сюда

Втр 03 Дек 2013 17:43:24
http://yamb.unite-video.com]

Video
ID : 1
Format : AVC
Format/Info : Advanced Video Codec
Format profile : High@L4.0
Format settings, CABAC : Yes
Format settings, ReFrames : 7 frames
Codec ID : avc1
Codec ID/Info : Advanced Video Coding
Duration : 1h 29mn
Bit rate : 994 Kbps
Maximum bit rate : 5 518 Kbps
Width : 1 280 pixels
Height : 544 pixels
Display aspect ratio : 2.35:1
Frame rate mode : Constant
Frame rate : 23.976 fps
Color space : YUV
Chroma subsampling : 4:2:0
Bit depth : 8 bits
Scan type : Progressive
Bits/(Pixel*Frame) : 0.060
Stream size : 637 MiB (91%)
Writing library : x264 core 130 r2273 b3065e6
Encoding settings : cabac=1 / ref=8 / deblock=1:0:0 / analyse=0x3:0x133 / me=umh / subme=9 / psy=1 / psy_rd=1.00:0.00 / mixed_ref=1 / me_range=16 / chroma_me=1 / trellis=2 / 8x8dct=1 / cqm=0 / deadzone=21, 11 / fast_pskip=1 / chroma_qp_offset=-2 / threads=12 / lookahead_threads=1 / sliced_threads=0 / nr=0 / decimate=1 / interlaced=0 / bluray_compat=0 / constrained_intra=0 / bframes=3 / b_pyramid=1 / b_adapt=2 / b_bias=2 / direct=3 / weightb=1 / open_gop=0 / weightp=2 / keyint=240 / keyint_min=23 / scenecut=40 / intra_refresh=0 / rc_lookahead=60 / rc=2pass / mbtree=1 / bitrate=994 / ratetol=1.0 / qcomp=0.60 / qpmin=10 / qpmax=51 / qpstep=4 / cplxblur=20.0 / qblur=0.5 / ip_ratio=1.40 / aq=1:1.00
Encoded date : UTC 2013-03-26 07:37:55
Tagged date : UTC 2013-03-26 07:38:36

Audio
ID : 2
Format : AAC
Format/Info : Advanced Audio Codec
Format profile : LC
Codec ID : 40
Duration : 1h 29mn
Bit rate mode : Variable
Bit rate : 96.0 Kbps
Maximum bit rate : 108 Kbps
Channel(s) : 2 channels
Channel positions : Front: L R
Sampling rate : 48.0 KHz
Compression mode : Lossy
Stream size : 60.9 MiB (9%)
Encoded date : UTC 2013-03-26 07:38:34
Tagged date : UTC 2013-03-26 07:38:36

не-оп

Втр 03 Дек 2013 17:44:21
>>58344361
General
Complete name : D:\тыхуй\(2013) [1080p]\Kick-Ass.2.2013.1080p.BluRay.x264.YIFY.mp4
Format : MPEG-4
Format profile : Base Media
Codec ID : isom
File size : 1.63 GiB
Duration : 1h 43mn
Overall bit rate mode : Variable
Overall bit rate : 2 269 Kbps
Encoded date : UTC 2013-11-30 16:39:38
Tagged date : UTC 2013-11-30 16:39:38

Video
ID : 1
Format : AVC
Format/Info : Advanced Video Codec
Format profile : High@L4.1
Format settings, CABAC : Yes
Format settings, ReFrames : 4 frames
Codec ID : avc1
Codec ID/Info : Advanced Video Coding
Duration : 1h 43mn
Bit rate : 2 172 Kbps
Maximum bit rate : 15.1 Mbps
Width : 1 920 pixels
Height : 800 pixels
Display aspect ratio : 2.40:1
Frame rate mode : Constant
Frame rate : 23.976 fps
Color space : YUV
Chroma subsampling : 4:2:0
Bit depth : 8 bits
Scan type : Progressive
Bits/(Pixel*Frame) : 0.059
Stream size : 1.56 GiB (96%)
Writing library : x264 core 138 r2 9e941d1
Encoding settings : cabac=1 / ref=4 / deblock=1:-1:-1 / analyse=0x3:0x133 / me=umh / subme=9 / psy=1 / psy_rd=1.00:0.15 / mixed_ref=1 / me_range=24 / chroma_me=1 / trellis=2 / 8x8dct=1 / cqm=0 / deadzone=21, 11 / fast_pskip=0 / chroma_qp_offset=-3 / threads=18 / lookahead_threads=1 / sliced_threads=0 / nr=0 / decimate=1 / interlaced=0 / bluray_compat=0 / constrained_intra=0 / bframes=3 / b_pyramid=2 / b_adapt=2 / b_bias=0 / direct=3 / weightb=1 / open_gop=0 / weightp=2 / keyint=250 / keyint_min=23 / scenecut=40 / intra_refresh=0 / rc_lookahead=60 / rc=2pass / mbtree=1 / bitrate=2172 / ratetol=1.0 / qcomp=0.60 / qpmin=0 / qpmax=69 / qpstep=4 / cplxblur=20.0 / qblur=0.5 / vbv_maxrate=31250 / vbv_bufsize=31250 / nal_hrd=none / ip_ratio=1.40 / aq=1:1.00
Encoded date : UTC 2013-11-30 16:39:38
Tagged date : UTC 2013-11-30 16:39:46
Color primaries : BT.709-5, BT.1361, IEC 61966-2-4, SMPTE RP177
Matrix coefficients : BT.709-5, BT.1361, IEC 61966-2-4 709, SMPTE RP177

Audio
ID : 2
Format : AAC
Format/Info : Advanced Audio Codec
Format profile : LC
Codec ID : 40
Duration : 1h 43mn
Bit rate mode : Variable
Bit rate : 93.8 Kbps
Maximum bit rate : 101 Kbps
Channel(s) : 2 channels
Channel positions : Front: L R
Sampling rate : 48.0 KHz
Compression mode : Lossy
Stream size : 69.1 MiB (4%)
Language : English
Encoded date : UTC 2013-11-30 16:39:45
Tagged date : UTC 2013-11-30 16:39:46

Втр 03 Дек 2013 17:56:43
>>58344361
>береш
>открываеш
>нажимаеш
>переходиш
>копируеш
>Умираш да позираш, да копираш, да блестиш,
След себе си оставяш грешни изводи.

Мразиш, по пътя всичко газиш,
Дали ще я опазиш душата си от тази суета?
Мамиш, със славата се храниш,
Дали ще я опазиш душата си от тази суета?

Не спираш да показваш всички свои прелести,
Макар на заем взети, изкопирани.

но я всё-таки надеюсь, что ты это специально

Втр 03 Дек 2013 18:00:55
>>58339608
> на нормальных тв (от 50")
1080p на 50"+ при любом раскладе хуево смотрится.

Втр 03 Дек 2013 18:06:51
>>58344492
>>58344535
Я сначало подумал что вы толстенные троли и хотел не отвечать, но если разобраться, то у обоих используется сглаживание крайне низкие Bit rate : 994 Kbps и Bits/(Pixel*Frame) : 0.059, низкие кванты итд.Сглаживание убивает четкость, убирая мелкие детали, размывая видео позволяя выставлять низкие битрейды.Вы какбы слушаете мп3 64кб/с и охуеваете от совершенства звука. Только двупроходное кодирование и не распиздяйские настройки ставит эти релизы чуть выше качества ютюба, но несильно.
Почему не качаете с этого вашего рутрекера?Там и оригинальная дорога всегда присутствует, а за качеством следят так что пиздец и эти релизы заставили бы тамошних модеров лопнуть со смеху.

Втр 03 Дек 2013 18:07:49
>>58345048
лоол

Втр 03 Дек 2013 18:09:19
>>58345454
Разве плохое качество?

Втр 03 Дек 2013 18:14:53
>>58345454
> Почему не качаете с этого вашего рутрекера?
Там рипы с таким кач-вом весят в два раза больше лол. 700мб против 1.46гб

Втр 03 Дек 2013 18:17:45
>>58345793
Ебать, на полторы минуты дольше качаться будут.

Втр 03 Дек 2013 18:21:05
>>58345919
Не полторы, а около 30. Добро пожаловать в мухосранск. Хотя, все равно не много.

Втр 03 Дек 2013 18:22:27
>>58345560
Честно говоря плохватое, размытие фуллХД картинки, этот как пчелы портили бы мед специально, а потом наслаждались вкусом, этоже мазохизм.Нормальный резмер720р рипа от 4х ГБ в самом полохом случае, 1080 от8, иначе кадр начнет квадратиться и придеться применять сглаживание.Лучше скачать нормальный н264 рип 720х576р на 700 метров, чем на корню убивать качество картинки оставляя огромное разрешение.

Втр 03 Дек 2013 18:23:18
>>58346068
Я тоже с мухосранска.

Втр 03 Дек 2013 18:27:24
>>58345048
Содомит )))0000))))0))00))))))00)))


← К списку тредов