Карта сайта

Это автоматически сохраненная страница от 18.05.2017. Оригинал был здесь: http://2ch.hk/b/res/153304188.html
Сайт a2ch.ru не связан с авторами и содержимым страницы
жалоба / abuse: admin@a2ch.ru

Срд 17 Май 2017 20:37:36
Анимублядский WebM-тред Как искать соус: 1. Читай
Web►M
Анимублядский WebM-тред  Как искать соус: 1. Читай
Анимублядский WebM-тред

Как искать соус:
1. Читай название самой WebM
2. Смотри метадату
3. Сохраняй кадр и ищи его на http://images.google.com или https://whatanime.ga

Лимиты:
Стандарт — 20480КБ
Обычный пасскод — 40960КБ
Элитный пасскод — 61440КБ

Вниманиебляди всех видов и прочее непотребство отправляется в порнотред: >>153290586 (OP).

Ссылка на пасту:
http://pastebin.com/iT0vmAZS



Срд 17 Май 2017 20:39:02
Web►M
девочек волшебниц вам в тред.


Срд 17 Май 2017 20:39:38



Срд 17 Май 2017 20:39:58
>>153304294
А нахуя сабы?


Срд 17 Май 2017 20:40:33
>>153304363
Все ради глухих анонов.

Срд 17 Май 2017 20:41:01
Web►M

Web►M


Срд 17 Май 2017 20:41:52
>>153304414
Но ведь, в таком случае, они должны быть ангельскими

Срд 17 Май 2017 20:42:10
Web►M

Web►M

Web►M

Web►M


Срд 17 Май 2017 20:42:54
>>153304542
Лучшая девочка


Срд 17 Май 2017 20:43:03
Web►M



Срд 17 Май 2017 20:43:20
>>153304522
Ради глухих и не знающих английского анонов.

Срд 17 Май 2017 20:43:30

Срд 17 Май 2017 20:43:56
Web►M
>>153304603
>>153304542
Проходил я значит мимо, и что я вижу?


Срд 17 Май 2017 20:44:03
Web►M
ГЯРАНДЮХ


Срд 17 Май 2017 20:44:21
>>153304684
Платину.

Срд 17 Май 2017 20:44:23
>>153304603
Дрочишь на неё?

Срд 17 Май 2017 20:44:24
>>153304636
Ну тогда спасибо тебе, что заботишься о них.
Сможешь сделать эту же вебм для слепых анонов, чтобы они смогли на девочек волшебниц посмотреть?

Срд 17 Май 2017 20:44:31
Web►M
>>153304294
Поддерживаю


Срд 17 Май 2017 20:44:34
Web►M
>>153304688



Срд 17 Май 2017 20:44:44
Web►M
Ведёт себя как аниме.


Срд 17 Май 2017 20:44:54
Web►M



Срд 17 Май 2017 20:44:55
>>153304720
>>153304684
Ты же знаешь, что я не отвечу


Срд 17 Май 2017 20:45:10
Web►M
>>153304333



Срд 17 Май 2017 20:45:21
Web►M
>>153304363
Из неё Эстус льется?


Срд 17 Май 2017 20:45:49
Web►M



Срд 17 Май 2017 20:45:54
>>153304722
>для слепых анонов
>волшебниц посмотреть
не вижу противоречий в твоем посте.


Срд 17 Май 2017 20:46:29
Web►M
>>153304794



Срд 17 Май 2017 20:46:47
>>153304188 (OP)
Проклял


Срд 17 Май 2017 20:46:49
Web►M
>>153304294



Срд 17 Май 2017 20:46:54
Web►M
>>153304652
Ну поймал ты, а дальше что хочешь с ней делать ?


Срд 17 Май 2017 20:47:21
>>153304841
Двачую


Срд 17 Май 2017 20:47:49
>>153304913
Няшить же.

Срд 17 Май 2017 20:47:56
Web►M



Срд 17 Май 2017 20:48:14
>>153304794
Не, это сперма


Срд 17 Май 2017 20:48:25
Web►M
>>153304986
Вот ты и попался


Срд 17 Май 2017 20:49:19
Web►M
>>153304744
Блять лол что это? Она обдолбанная? Что вообще происходит?


Срд 17 Май 2017 20:49:26
Web►M



Срд 17 Май 2017 20:49:49
Web►M
>>153305036
Ну чо ты начинаешь.


Срд 17 Май 2017 20:49:51
>>153305036
почему не в гоблине, а?!

Срд 17 Май 2017 20:50:27
>>153304333
>Ансвер

Мощи мощи?


Срд 17 Май 2017 20:51:01
Web►M
>>153305148
Ну охуеть теперь.
>>153305036
Как хорошо что не я попался.


Срд 17 Май 2017 20:51:29
Web►M



Срд 17 Май 2017 20:52:19
Web►M
>>153305148
>>153305242
Вы следующие, приманка заброшена


Срд 17 Май 2017 20:52:42
Web►M



Срд 17 Май 2017 20:52:44
>>153305287
соус?

Срд 17 Май 2017 20:53:04
Web►M
>>153305242



Срд 17 Май 2017 20:53:18
>>153305021
Прошу заметить:
Не сперма, а мана!

Срд 17 Май 2017 20:54:17
Web►M
>>153304688
ЙОКАСА


Срд 17 Май 2017 20:54:19
Web►M
>>153305153
В чём было, так и сохранил
Фильм давно смотрел, забавный


Срд 17 Май 2017 20:54:24
>>153305414
Я заинтригован.
>>153305348
Но мы то все знаем что ты не с проста постишь эту лолю

Срд 17 Май 2017 20:54:43
Web►M



Срд 17 Май 2017 20:55:07
Web►M
>>153305114



Срд 17 Май 2017 20:55:32
Web►M
>>153305526
Я подсадил её, теперь точно не уйдёт!


Срд 17 Май 2017 20:56:07
>>153305603
это же из берсерка:?

Срд 17 Май 2017 20:56:33
>>153304688
Газонюх?


Срд 17 Май 2017 20:57:12
Web►M
>>153305526
> Я заинтригован.
Игрались с продолговатым предметом


Срд 17 Май 2017 20:57:53
Web►M



Срд 17 Май 2017 20:58:18
>>153305640
На что подсадил?
Ты пока подумай над ответом, а я наберу номер знакомого майора.

Срд 17 Май 2017 20:59:01
Web►M



Срд 17 Май 2017 20:59:04
Web►M
ИТТ мой следующий тайтл v2.0
1 монстр
2 город где меня нет
3 чамплу
4 торадора
5 индекс
6 берсерк
7 кошечка из сакурасо
8 планеты
9 гуль
0 kimi ni todoke

Даблы: смотрю дальше
11 initial d ss
22 hs dxd
33 psycho-pass
44 durarara
55 мало друзей
66 nisekoi
77 волчица
88 ореимо
99 цикадоовы
00 вата

Трипл - всех гатарей


Срд 17 Май 2017 20:59:12
Web►M
>>153305391



Срд 17 Май 2017 20:59:20
Web►M
анон, дай соус плз


Срд 17 Май 2017 20:59:33
>>153305557
юи охуенная тема!

Срд 17 Май 2017 20:59:53
Web►M



Срд 17 Май 2017 20:59:56
Web►M
>>153305889
Мне не нужно думать, уже всё сделано...
Её первый приход!


Срд 17 Май 2017 21:00:15
Мне тут один анончик обещал аплодирующего пака из ReZero скинуть. Ты тут, киса?

Срд 17 Май 2017 21:00:38
>>153305962
говноролл

Срд 17 Май 2017 21:00:45
Web►M
>>153305962
роллирую


Срд 17 Май 2017 21:00:47
Web►M
>>153305557
Мы так в 2007 шутили.


Срд 17 Май 2017 21:00:54
Web►M
Анимублядский это посольство /а в /б треде?

Как запросить убежище? Я подвергаюсь различным гонениям со стороны порнотреда.


Срд 17 Май 2017 21:01:23
Web►M



Срд 17 Май 2017 21:01:33
>>153305962
это трипл

Срд 17 Май 2017 21:01:42
Web►M
>>153306159



Срд 17 Май 2017 21:01:57
>>153305962
ролл

Срд 17 Май 2017 21:02:16
Web►M
БЛЯ У ХОХЛОВ СОСАЧ ТЕПЕРЬ ТОЖЕ НЕ ОТКРЫВАЕТСЯ!!!АХААХХААХА


Срд 17 Май 2017 21:03:09
Web►M
>>153306122
> посольство
Отдельное государство.
>гонениям со стороны порнотреда.
Ну ты лол.


Срд 17 Май 2017 21:04:09
Web►M
>>153306230
Як я тоді тут находжусь, срана ти чайка?


Срд 17 Май 2017 21:04:11
Web►M



Срд 17 Май 2017 21:04:42
>>153306230
>СОСАЧ
У меня тоже не открывается. Я не хахол


Срд 17 Май 2017 21:05:17
Web►M



Срд 17 Май 2017 21:05:24
Web►M
>>153306230
Блин, а я всегда хохлопрокси юзаю.


Срд 17 Май 2017 21:05:34
>>153305387
что за аниме?

Срд 17 Май 2017 21:06:02
>>153306454
Навіть не знаю, радіти мені цій новині чи ні.

Срд 17 Май 2017 21:06:35
>>153306471
патема наиборот

Срд 17 Май 2017 21:07:10

Срд 17 Май 2017 21:07:16
Web►M
>>153306379
Под проксями, очевидно же. Или не все провайдеры еще настроились, киевстар и водафон - всё. Или ты в ростове от ато скрываешься лол
>>153306454
Переходи на нормальные.
>>153306410
Ну ты же понял.


Срд 17 Май 2017 21:07:16
Web►M
>>153306503
Блядь, ты чё епт?


Срд 17 Май 2017 21:07:34
>>153306410
У меня так 6 лет уже

Срд 17 Май 2017 21:07:36
Web►M
Блядь, пасаны, nyaa.se умер, где теперь качать-то аниму? На рутрекере качество и скорость-то норм, но заебешься ансабы прикручивать. Зеркала nyaa все полудохлые. Бака тем более.


Срд 17 Май 2017 21:08:43
Web►M
>>153306636
Онлайн с рудабом.


Срд 17 Май 2017 21:09:16
Web►M



Срд 17 Май 2017 21:09:39
Web►M
Чёрные комедии лучше аниме.


Срд 17 Май 2017 21:09:49
>>153306721
Ну я же не любитель гатарей, такое терпеть

Срд 17 Май 2017 21:09:53
>>153306636
Не понял про ансабы. Там же есть раздачи чисто с внешними сабами без ру озвучки.

Срд 17 Май 2017 21:09:55
>>153306636
nyaa.si

Срд 17 Май 2017 21:10:02
Web►M
>>153305387



Срд 17 Май 2017 21:10:18
>>153306041
Подлец .
Но у меня в загашнике только майор Дегуршаф.

Срд 17 Май 2017 21:10:59

Срд 17 Май 2017 21:11:02
Web►M
>>153306636
https://nyaa.pantsu.cat/ только тсссс, я тебе этого не говорил


Срд 17 Май 2017 21:11:33
>>153306816
Там и с ан.сабами ещё раздачи есть. Всю жизнь только НАШИМ РУССКИМ трекером пользуюсь.

Срд 17 Май 2017 21:11:46
>>153306816
англ сабы. Их обычно нет, только если рип спизжен из-за бугра и не вырезали. Давно поря обязаловкой сделать, честно говоря. Сами сабы не проблемА, но шансфы что они точно лягут на рип околонулевые.
>>153306819 >>153306906
> Зеркала nyaa все полудохлые
Умники дохуя?

Срд 17 Май 2017 21:11:52
Че там у конфы?

Срд 17 Май 2017 21:12:02
>>153306906
Кому нужны трусы котеек?

Срд 17 Май 2017 21:12:13
>>153306603
Ти правий. В мене і не кієвстар, і не водафон, а о3.

Срд 17 Май 2017 21:12:21
>>153306964
Хвоста пидорнули.

Срд 17 Май 2017 21:12:34
>>153306604
Що я?

Срд 17 Май 2017 21:12:43
>>153306636
Тут есть инфа по зеркалам https://pastebin.com/Gq9MrJN5

Срд 17 Май 2017 21:13:06
>>153306958
Нахуй иди, пидор анимешный.

Срд 17 Май 2017 21:13:40
Web►M
>>153307023
Ты национальную вражду разжигаешь?


Срд 17 Май 2017 21:13:57
>>153306636
> где теперь качать-то аниму?
Ты шо, довн? У хоррибблов, офкос.

Срд 17 Май 2017 21:14:00
Web►M
>>153304688



Срд 17 Май 2017 21:14:17

Web►M

Досмотрел оверлорда. Что дальше делать анимубляды? Что посоветуете. боку но пико смотрел

Срд 17 Май 2017 21:14:38



Срд 17 Май 2017 21:14:42
Web►M
>>153306850
Она ничего не сможет, потому что тоже лоля, а значит уже прошла через меня


Срд 17 Май 2017 21:14:57
>>153307154
Ты двутайтловый?

Срд 17 Май 2017 21:15:15
>>153307154
>Досмотрел оверлорда. Что дальше делать анимубляды?
Прочитать оверлорда

Там всего 11 томов, скоро 12 будет. Годнота, лучше героина

Срд 17 Май 2017 21:16:15
>>153307107
Ти щось маєшь проти українців і нашої мови?

Срд 17 Май 2017 21:16:24
Web►M
>>153307250
Вроде анонсировали 2 сезон, не?


Срд 17 Май 2017 21:16:43
>>153307250
Где читаешь? ССыль не подкинешь

Срд 17 Май 2017 21:16:51
Web►M
>>153307220
Обоснуй


Срд 17 Май 2017 21:17:12
>>153307347
Анонсировали, да.

Но самое ахуенное, я думаю, не покажут. Я думаю, арку со звероящерами на 6 серий тянуть будут

Срд 17 Май 2017 21:17:18
>>153307154
Кильку.

Срд 17 Май 2017 21:18:29
>>153307371
Тебе руссик?

Срд 17 Май 2017 21:18:32
Web►M
посмотрел все части гатари, скажу вам, говнецо отборное


Срд 17 Май 2017 21:18:40
>>153307134
А вот ты неплох, спасибо.

Срд 17 Май 2017 21:18:40
Web►M



Срд 17 Май 2017 21:18:43
Web►M



Срд 17 Май 2017 21:19:01
>>153307519
Ты просто маловат чутка.

Метафоры не замечаешь

Срд 17 Май 2017 21:19:08
>>153307379
> досмотрел оверлорда
> боку но пико смотрел
Если не двутайтловый - напиши более полный список.
Иначе скорее всего анимубляди будут советовать то, что ты уже видел.

Из 12ти серийников: школоло террор токиский террор/тень террора

Срд 17 Май 2017 21:19:22
Web►M
>>153307415
Я как раз на арке с ящерами остановился. Дальше будет убер контент? Ты меня прям завел.


Срд 17 Май 2017 21:19:25
>>153307512
Желательно, но я и в ангельский могухотя чувства не те

Срд 17 Май 2017 21:21:13
>>153307589
Да, будут многоходовочки.
И уничтожение целой армии одним кастом
>>153307592
Здесь есть руссик, остальное на твой страх и риск.https://vk.com/docs-101783749


Срд 17 Май 2017 21:21:30
>>153306636
>Не смотреть аниме онлайн в 2к17


Срд 17 Май 2017 21:21:33
>>153307568
дохуя посмотрел чего, сейчас потянуло на говнецо по типу мморпг с полным погружением, где герой застревает. Почти все тайтлы с такой тематикой посмотрел, поэтому и спрашиваю.

Срд 17 Май 2017 21:22:14
>>153296893
Лул, Рельсофаг это вообще больная тема. У конфопидорасов там например есть пиздабольская вниманиеблядина-конфоаватарка, которой очень хочется быть тем, кем эта конфоаватарка не является, и не являлась никогда, у коей по понятным причинам от рельсофага дикий бугурт вперемешку с завистью.

Срд 17 Май 2017 21:22:32
Web►M
>>153307724
Благодарствуем


Срд 17 Май 2017 21:22:52
>>153307747
Двачую

Смотрю на смотреть аниме. Убер удобно.
Привязка к малу, 1080п/720, сабы от любого Васяна, да еще и вебм можно на месте резать!

Срд 17 Май 2017 21:23:00

Срд 17 Май 2017 21:23:16
Web►M
>>153307747
>не смотреть 1080p HEVC h.265 10bit FLAC 5.1 Audio SVP 60fps on 4k 55 inch display
Проиграл с тебя.


Срд 17 Май 2017 21:23:58
Web►M
>>153307747
>Смотреть аниме не в 60фпс.


Срд 17 Май 2017 21:23:59
Дайте шебмов с Лейн, прашу
прошлый тред просрал

Срд 17 Май 2017 21:24:51
>>153307900
>не смотреть аниме во сне с прямым подключением к твоему сознанию, полным погружением и взаимодействием с миром аниме
Мда, хех.

Срд 17 Май 2017 21:24:55
Web►M
>>153306037
Переделал.


Срд 17 Май 2017 21:25:05
Web►M
>>153307561
Какие нахуй метафоры? Профессор аниме-науки, залогиньтесь. Там сплошной фансервис для детей-даунов.


Срд 17 Май 2017 21:25:11
Web►M
>Смотреть аниме


Срд 17 Май 2017 21:25:38
>>153308023
Суууууука, откуда полосы взялись?

Срд 17 Май 2017 21:26:16
Web►M
>>153307951
Нет.


Срд 17 Май 2017 21:26:31
>>153307900
>>153307949
Человеческий глаз больше 30 не воспринимает, о чем вы?

Срд 17 Май 2017 21:26:43
>>153308035
А как ты объяснишь отсылку к Иисусу в виде Арарагия?

Любовь к людям и желание им помочь, а сучка?

Срд 17 Май 2017 21:26:52
>>153308023
>>153308076
Насмешил своей переделкой

Срд 17 Май 2017 21:27:02
Web►M



Срд 17 Май 2017 21:27:17
>>153308149
Это твой шоколадный глаз больше 30 хуёв не принимает за раз.

Срд 17 Май 2017 21:27:22
>>153307752
Очевидные попаданцы: злая таня, врата (там сражаются наши войны), скитальцы, нгнл, коносуба,гримгал

Срд 17 Май 2017 21:27:25
>>153308125
Бл
Ну а если пожалуйста?

Срд 17 Май 2017 21:28:06
>>153308076
Какие полосы?
Вбей #fullscreen-container {background:none !important;} в настройках css макабы.


Срд 17 Май 2017 21:28:09
Web►M
>>153308221
А в /а/ тебе ответил.


Срд 17 Май 2017 21:29:00
Web►M
>>153307197
Она таких как ты студентов строем учит ходить, не замахивайся на то, что может тебя подорвать в мгновение ока.


Срд 17 Май 2017 21:29:05
Web►M
>>153308162
одна метафора и 10 тысяч жоп с сиськами


Срд 17 Май 2017 21:29:32
>>153307813
Вас почитать, так аж смешно становится. Вы же ни черта не понимаете истинную суть нашего влияние на этот тред. Блаженны верующие, как говорится. Вообще, конфа изначально создавалась с целью уничтожения Анимублядского вебм-треда. Это был заказ от влиятельных людей. Первым делом мы избавились от одного из столпов треда — Рельсофага. Посредством создания копий и всяческого давления на него. Спустя какое-то время мы запустили проект "Говнофорс", одним из аспектов этого проекта был форсед-мем Шляпа, который с большим успехом отбивал желание у истинных завсегдатаев посещать нить. После нам оставалось избавиться от последнего оплота треда — шапки. Это оказалось уже не сложно, учитывая ручного мочера на поводке. Наше влияние разрослось, аноны бугуртили но ничего не могли с этим поделать. Вишенкой на торте стал форс самой конфы в треде и множество информационных вбросов, чтобы завуалировать истину. Но один сообразительный анимублядок всё таки раскусил нашу схему. Но его мало кто слушает, принимая за поехавшего с плакатом "Конец близко" на оживлённых городских улицах.

конфогосподин

Срд 17 Май 2017 21:29:38
>>153308149
Глаз анимешника не воспринимает больше трех

Срд 17 Май 2017 21:29:45
Ппп


Срд 17 Май 2017 21:29:48
>>153308275
Ну вот же. Вообще, делал конвертил через XMedia Recode, ибо влом ебаться с консолькой.


Срд 17 Май 2017 21:29:57
>>153308344
Я же говорю, ты не дорос. Не видишь все, что есть на самом деле.

Срд 17 Май 2017 21:30:17
Web►M



Срд 17 Май 2017 21:30:46
Web►M
Помню анон какой-то еще неделю назад просил, но я тока щас у нарутопидора исходник сохранил.


Срд 17 Май 2017 21:30:51
Web►M
>>153308412
>Дорос
>анимублядский


Срд 17 Май 2017 21:30:55
>>153308400
Им дали вебм фор ретардс за место консольки, но нет, буду пилить полосы

Срд 17 Май 2017 21:31:08
Web►M
>>153308412
Да иди ты нахуй, феласаф


Срд 17 Май 2017 21:31:30
Web►M



Срд 17 Май 2017 21:31:42
Web►M
>>153308336
Она не подорвёт меня, если я уже подорвал её


Срд 17 Май 2017 21:32:14
>>153308400
>>153308275
> Stream #0:0(eng): Video: vp8, yuv420p, 1440x1080, SAR 4:3 DAR 16:9, 29.97 fps, 29.97 tbr, 1k tbn, 1k tbc (default)

Может быть полосы связаны с ВОТ ЭТОЙ ВОТ ХУЕРГОЙ?

Срд 17 Май 2017 21:32:41

Срд 17 Май 2017 21:33:25
>>153308162
Спешите видеть, гатарипидор высасывает из пальца метафоры, чтобы дать на кукан честным крестьянам анимублядского

Срд 17 Май 2017 21:34:18
Web►M

Web►M


Срд 17 Май 2017 21:34:34
>>153308162
> Любовь к людям и желание им помочь
Не людям, а только тянкам.
Типичный приём типичного гаремника же.
>>153307519
Ебать ты говноед.

Срд 17 Май 2017 21:35:26
>>153308590
Именно с ней. Юзай -SAR 1:1

Срд 17 Май 2017 21:36:19
>>153307878
Вот Мадоку сюда приплетать не надо, пожалуйста.


Срд 17 Май 2017 21:36:34
Web►M



Срд 17 Май 2017 21:36:59
Web►M
Зловещий вечер


Срд 17 Май 2017 21:37:11
>>153308773
>Не людям, а только тянкам.
А ты у нас из тех, кто жопой смотрит, да?

Не общайся на темы в которых не осведомлен, лады?

Срд 17 Май 2017 21:37:24
[email: sage]

>>153304794
Пересмотрел опенинг нового берсерка, какая же хуита, музыка просто огонь но она не подходит к аниме, безрукие анимеделы.

Срд 17 Май 2017 21:37:53
Web►M
>>153308890
С медукой уже и так давно всё ясно


Срд 17 Май 2017 21:37:59
жрите


Срд 17 Май 2017 21:38:01
>>153308431
Какая же Нярука подлая сволочь.

Срд 17 Май 2017 21:38:56
Web►M
>>153308023
Test.


Срд 17 Май 2017 21:39:13
>>153309104
Да ёб твою мать.

Срд 17 Май 2017 21:39:19
>>153309011
Что это лучшее, что когда-либо было нарисовано человеком? Полностью согласен.


Срд 17 Май 2017 21:39:30
>>153309104
> 1440x1080

Срд 17 Май 2017 21:39:42
Web►M
>>153309026
С радостью бы послушал стоны Кууко еще


Срд 17 Май 2017 21:39:53
>>153308963
Ну давай, удиви меня.
Каким кунам помог арарагий за все сезоны анимы?

Срд 17 Май 2017 21:39:58
Web►M
>>153309104
>1440x1080


Срд 17 Май 2017 21:40:11
Пиздец, я вот сижу здесь и понимаю, что трачу свое драгоценное время. Я бы мог посмотрел столько годных тайтлов, но не могу понять где искать их. Помоги, анимеблядь, где крутые тайтлы? Дай название своего любимого тайтла, а я попробую его схавать!


Срд 17 Май 2017 21:40:45
Web►M
>>153309137
Да да да, тут есть уже подобный Вин тысячелетия


Срд 17 Май 2017 21:40:46
>>153309104
Чот ты до сих пор криворук.

Срд 17 Май 2017 21:40:58
>>153309217
ЕВА, МАДОКА, МЕТАФОРЫ, АЛЛЮЗИИ

Срд 17 Май 2017 21:41:07
>>153309217
Ping Pong The Animation
Заебался годноту палить

Срд 17 Май 2017 21:41:21
Web►M
>>153309168
Вот мразь! Никто её не любит, кроме Кууко, а она с ней так обращается.


Срд 17 Май 2017 21:41:48
Web►M
>>153309217
Нярука, оверлорд


Срд 17 Май 2017 21:42:10
Вы понимаете, что няши вам не светят? Максимум порно с ефукта ирл

Срд 17 Май 2017 21:43:16
>>153309294
Это там, где гг специально поддался другу, тот выиграл турнир и стал успешным спортсменом, а гг только тренером пинг понга?

Срд 17 Май 2017 21:44:03
>>153309257
>подобный
Кеани, конечно, великая студия и они сделали годноты гораздо больше шафта, но ты тут со своими форсами, пожалуйста, не шути, когда дело касается сравнений с Мадокой.


Срд 17 Май 2017 21:44:27
>>153309311
Ебать аутизм. Ебало бы набить тем кто такое рисует.

Срд 17 Май 2017 21:44:29
>>153309468
Он не поддавался, у героев нет слабостей

Срд 17 Май 2017 21:44:34
Web►M



Срд 17 Май 2017 21:44:46
Web►M
>>153309217
Вылавливай то что тебе понравилось из вебемок или рекомендаций ютуба и записывай название в блокнотик.


Срд 17 Май 2017 21:44:48
>>153309184
Лень все писать

Самый очевидный вариант


Срд 17 Май 2017 21:44:53



>>153309259
Да пиздец, неужели исходник такой? Думал ща, ебать, ориджинал контент запилю, а хуй там. Уже и конвертил в разных конвертерах, а результат один.

Срд 17 Май 2017 21:45:06
Web►M
>>153305194
Сэкс плиз.


Срд 17 Май 2017 21:45:49
>>153305962
roll na norm


Срд 17 Май 2017 21:45:55
Web►M
>>153309563
Набить ебало нужно только тем, кто Няруко рисует. С Кууко всё в порядке.


Срд 17 Май 2017 21:45:55
>>153309617
Попробуй 16:9 поставить, кодер

Срд 17 Май 2017 21:46:10
>>153309217
Легенда о героях галактики
Монстр
Касание
Го Хикару
Капета

Срд 17 Май 2017 21:46:53
>>153309608
Лол, у этого трапа никогда не было проблем потому что он никогда не жил.
Но трап помогал арарагию разрулить его проблемы.

Срд 17 Май 2017 21:47:25
Web►M
>>153309104



Срд 17 Май 2017 21:47:35
Web►M



Срд 17 Май 2017 21:47:54
>>153309772
Сможешь запруфать, что трап не является Араргием, который помогает сам себе*

Срд 17 Май 2017 21:48:00
Web►M
>>153309617
Сделай через сонсоль, прошу. Эта строка аргументов... Ух, какая она мерзкая.


Срд 17 Май 2017 21:48:06
Web►M
>>153309694
Test.


Срд 17 Май 2017 21:48:13
>>153309693
Да она аутист хуже Няруки, ну та то хоть пришелец, ей простительно.

Срд 17 Май 2017 21:48:13
>>153309617
Скинь исходник mp4

Срд 17 Май 2017 21:48:15
>>153308373
Ой, блядь, съеби. История с Рельсофагом начинается даже не с анимублядского, а изначально еще с того момента, когда тут webm не было даже в проекте. Из-за этой конфоаватарки её друзяшки в свое время устроили аж целый вайп всего раздела, дабы Рельсофага забанили, и он не шлялся по всему /b/, и ненароком не спалил пиздежь той аватарки перед рядом её знакомых. И да, в итоге они добились своего, и привлекли внимание модсостава, но хитроплан бодро пропалили, и по шапке получил отнюдь не рельсофаг.

Срд 17 Май 2017 21:48:32
>>153309869
> 1440x1080,
А ты плохо учился, да?

Срд 17 Май 2017 21:48:43
>>153309617
В премьере можно сразу в вебм конвертить

Срд 17 Май 2017 21:49:03
>>153309877
Это тоже ксенос


Срд 17 Май 2017 21:49:16
>>153309860
>мне нинравится когда кто-то делает не так как я
Хех.

Срд 17 Май 2017 21:49:17
Web►M



Срд 17 Май 2017 21:50:32
Web►M
>>153309104



Срд 17 Май 2017 21:50:52
Web►M
>>153309617
Опа! Ориджинал на подходе!
Админ паблоса, ты здесь?


Срд 17 Май 2017 21:52:05
Web►M



Срд 17 Май 2017 21:52:10
Web►M



Срд 17 Май 2017 21:52:26
>>153307415
Блять не дай бог. Ящеры - самая ни о чем арка всего тайтла. А 12 же вроде не раньше конца августа только в яп выходит?
И они ахуели убивать Айнца в послесловии 11 тома? Я прям полыхаю как только вспоминаю.


Срд 17 Май 2017 21:53:14
>>153309878
Ну держи http://dropmefiles.com/lzEwj

Срд 17 Май 2017 21:54:31
>>153309939
Ясно. А они поебутся с Нярукой то в итоге?

Срд 17 Май 2017 21:54:55
>>153310203
>Ящеры - самая ни о чем арка всего тайтла.
Да, это был пиздец.
>>153310203
>августа
На самом деле, я точной даты не знал. Информация была только о лете 2017, вот и написал.
Да там многоходовочка, же. Не умер он.
Максимум тестил возрождение игроков из Иглрасиля на себе.




Срд 17 Май 2017 21:55:00
>>153310203
Он совсем поехал и его убили?

Срд 17 Май 2017 21:55:22
>>153309853
За 8 лет гатарей сам себе арарагий никогда не мог помочь. Всегда ему на помощь приходил кто-то из его гарема.
В гареме трапа не хватали - ввели такую "странность". Что делает участник гарема? Или попадают в трудности или помогают решить трудности другого участника.

Срд 17 Май 2017 21:55:27
Web►M
>>153310203
Ты что, на ящероеблю посмотреть не хочешь?


Срд 17 Май 2017 21:55:40
>>153308373
Из этой истории понятно лишь то, что вы обосрались по всем фронтам. Получается, что ваша конфа не более, чем очередная чатико-пидорская тусовка с завышенным чсв.

Срд 17 Май 2017 21:56:05
Web►M



Срд 17 Май 2017 21:56:16
>>153309617
Для тебя сделали шебм фор ретардс с удобным гуи, а ты все равно ебешься с этими аргументами. Зачем?

Срд 17 Май 2017 21:57:01
>>153310346
А хуй знает, в аниме не было. Наверняка есть манга или еще что-то, но я не читал
>>153307512
Можно и мне ссылочку? Неважно ру или англ, главное где вышло больше

Срд 17 Май 2017 21:57:07
Web►M
>>153310459
Вот собачка выросла


Срд 17 Май 2017 21:57:34

Срд 17 Май 2017 21:58:32
>>153310523
Кокоа и Коко

Я кажется нашел аллюзии и метафоры, держите меня

Срд 17 Май 2017 22:00:01
>>153309617
пиксель поставь квадратный

Срд 17 Май 2017 22:01:05
[email: sage]

какие же вы дегенераты

Срд 17 Май 2017 22:01:19
>>153310812
пиздец просто

Срд 17 Май 2017 22:01:37
Web►M
Одногруппник залпом просмотрел всего жожу своим 1 тайтлом и ебанулся на отличненько. Теперь постоянно шутит гомо шутки на грани фола, кидает в конфу группы гачей без перерыва и заебывает меня жожа мемесами. Его только пристрелить теперь?


Срд 17 Май 2017 22:02:30
Web►M



Срд 17 Май 2017 22:02:36
Web►M
>>153310856
Да. Неокрепший разум и сразу жожа - человек пропал.


Срд 17 Май 2017 22:02:51
>>153310856
Только не говори ему о существовании этого уютного места.

Срд 17 Май 2017 22:02:54
>>153310856
ты че, анимешник чтоли?

Срд 17 Май 2017 22:02:56
Web►M
>>153310366
Ну ясное дело что не с концами, он такой параноик же, но я хочу унижения, убийств во славу бога крови, ссущихся драконов и текущих телочек, а не огребаний на почве хочу потестить. Колдунша нежить, кстати - топчик. Что за анал-карнавал с троллем на арене был - до сих пор понять не могу. Как и ящеров. Кстати читал забавную теорию, что ему так прет потому что у него был огромный стат интеллекта и он подсознательно выбирает лучшие варианты многоходовочек поэтому.
>>153310408
Ну разве что, но дальше все равно значительно веселее.



Срд 17 Май 2017 22:02:57
Web►M
>>153310856
Причем здесь жожа и гачи? От куда он узнал про гачей?


Срд 17 Май 2017 22:03:58
Web►M
>>153310856
Только усыплять


Срд 17 Май 2017 22:04:02
>>153310856
Есть 2 стула. Посоветуй ему либо гатарей, и возможно он прийдёт в норму (там баб хоть показывают), либо посоветуй ему боку но пико (что бы вообще в края ёбнулся).

Срд 17 Май 2017 22:04:21
Web►M
>>153310270
Проба


Срд 17 Май 2017 22:04:27
>>153310856
>Его только пристрелить теперь?
Нет, скажи ему что если он не угомонится, то ты крикнешь "За Варудо" и мол голосовые связки твои не дрогнут. Он обосрется и будет паинькой

Срд 17 Май 2017 22:04:28
>>153310856
Покажи ему bnp

Срд 17 Май 2017 22:04:39
>>153311063
>>153310270
Ок, я тоже криворук

Срд 17 Май 2017 22:04:45
>>153310959
>Кстати читал забавную теорию, что ему так прет потому что у него был огромный стат интеллекта и он подсознательно выбирает лучшие варианты многоходовочек поэтому.

Возможно, да.

А еще, мне кажется, Демиург уже давно все прознал про Аинза и просто подыгрывает ему, когда это необходимо.

Срд 17 Май 2017 22:04:59
>>153311063
Конвертили всем двачем.

Срд 17 Май 2017 22:05:13
Web►M
>>153310947
> уютного
> анимублядский
> уютного


Срд 17 Май 2017 22:05:47
Web►M
>>153311042
Двухтайтловый гатари-жожа даун, который любит гачи?
Убейте его, оно не должно существовать.


Срд 17 Май 2017 22:05:54
>>153311063
Блять, что ж вы делаете с соотношением сторон?
>>153311111
Ебать я в голосину проорал с пентипла

Срд 17 Май 2017 22:07:13
Web►M
>>153310960
А хуй знает
>>153311042
Лечение говном?
>>153311078
Он на полном серьезе собирался его посмотреть
>>153310947
Он уже видел вкладку в моем браузере, но говорит "борды в 2к17 это такая бесполезная фигня" и садится читать парашные паблики в вк


Срд 17 Май 2017 22:07:23
>>153311063
Ты сразу не мог посмотреть, что видео с рамками?

Срд 17 Май 2017 22:07:56
>>153311170
мой член увидела

Срд 17 Май 2017 22:08:26
Web►M



Срд 17 Май 2017 22:08:53
Web►M
>>153311170
Бля, ну не всем повезло. У меня первым тайтлом был Хельсинг, потом тетрадка, а за ней куклы. Так я стал куклофагом.


Срд 17 Май 2017 22:08:54
Web►M



Срд 17 Май 2017 22:08:59
>>153311288
Но тут же нет никаких рамок.


Срд 17 Май 2017 22:09:04
>>153311288
Анон, ты не поверишь...



Срд 17 Май 2017 22:09:11



Срд 17 Май 2017 22:09:35
>>153311322
Сидя на моем.

Срд 17 Май 2017 22:09:41
>>153311396
А еще там соотношение сторон 16:9, а не 4:3

Срд 17 Май 2017 22:10:07
>>153311095
Ну Демиург конечно хитрожопый товарищ, хотя Альбедо тоже чего стоит. Но они вроде дружно ахуели когда Император пришел сдаваться. Я кстати жопой читал, не помню точно, но там в одном месте Альбедо вроде у Айнца выпросила себе личную партию по поиску создаталей. Причем там еще были какие то недобрые намеки что она мол флаги партии у себя поснимала все, и вообще недовольна происходящим.

Срд 17 Май 2017 22:10:15
Web►M



Срд 17 Май 2017 22:10:24
Вкиньте Webm по amanchu, которым недавно вайпали обычный вебмтред.


Срд 17 Май 2017 22:10:42
Web►M
Этому треду не хватает немножко пои


Срд 17 Май 2017 22:11:15
>>153311387
Ну это у тебя классическая ситуация начинающего анимешника в 00ых - ничего плохого.

Срд 17 Май 2017 22:11:32
>>153311513
> обычный вебмтред.
>2017

Срд 17 Май 2017 22:11:36
Web►M
>>153311513
У меня только одна вебм по аманчу


Срд 17 Май 2017 22:11:53
>>153311403
>анон


Срд 17 Май 2017 22:12:15

Срд 17 Май 2017 22:12:34
Web►M
>>153311586
Ну не анимутред, а говновебмтред.


Срд 17 Май 2017 22:12:49
>>153311491
> Император пришел сдаваться
>дружно ахуели
Ого, наш владыка переиграл нас и смог сделать императора своим вассалом, а мы хотели уничтожить империю, ай да владыка!

Не перестаю рофлить с этой хуйни


Срд 17 Май 2017 22:13:05
Web►M
>>153311662
Это называется порнотред


Срд 17 Май 2017 22:13:33
>>153311403
Щас у меня докодируется я тоже свою толику говна внесу.

Срд 17 Май 2017 22:13:47
>>153311591
Она самая. Спасибо!


Срд 17 Май 2017 22:13:51
>>153311532
Чё значит пои?

Срд 17 Май 2017 22:14:13
>>153311744
поибалу

Срд 17 Май 2017 22:14:51
Web►M



Срд 17 Май 2017 22:15:24
>>153311678
Я упрлся и не понимаю в чем тут рофл


Срд 17 Май 2017 22:15:28
>>153311491
> флаги партии у себя поснимала все, и вообще недовольна происходящим.
Это вроде как-то связано, что Мамонга стал называть себя в честь гильдии(Аинз), а Альбедо любит Мамонгу, ведь он редактил ее, пока был в игре.

Срд 17 Май 2017 22:16:07
>>153311833
Не обращай внимания, я немного поехавший. Даже в дурке лежал

Срд 17 Май 2017 22:16:27
Web►M
Пацаны, я слышал у какляторов двач тоже блочится. Это правда?


Срд 17 Май 2017 22:16:55
Web►M
>>153311888
От армейки косил?


Срд 17 Май 2017 22:17:15
>>153311947
траву косил

Срд 17 Май 2017 22:17:19
>>153311947
И это тоже

Срд 17 Май 2017 22:17:37
Web►M



Срд 17 Май 2017 22:17:43
Web►M
>>153311735
Подставь вичуху под пикчу, ахуенно получится


Срд 17 Май 2017 22:18:00
Web►M



Срд 17 Май 2017 22:18:12
Web►M
>>153311844
Ну я примерно так и подумал, но с точки зрения что она просто хочет только ему быть верна, и ставит его выше, а не то что он себя обзывать по другому стал.

>>153311888
Мне теперь любопытно, объясняй. няша


Срд 17 Май 2017 22:18:32
Web►M
>>153311063
Test 2.


Срд 17 Май 2017 22:18:34
Web►M
>>153311907
Пока видел сообщения что мобильные операторы vodafone и киевстар заблочил двач.


Срд 17 Май 2017 22:18:35
>>153312003
Извини но мне не 12 лет и я уже перерос это говно.

Срд 17 Май 2017 22:18:35
Web►M
>>153312003
Как ты его говноедом назвал-то


Срд 17 Май 2017 22:18:58

Срд 17 Май 2017 22:19:12
>>153312067
Тест удачен. Мне не кодировать?

Срд 17 Май 2017 22:19:12
Web►M
>>153312067
Алелуя


Срд 17 Май 2017 22:19:24
>>153312067
ОООООО

Срд 17 Май 2017 22:19:35



Срд 17 Май 2017 22:19:38
Web►M
>>153312067
ООООООООООООООООООООООООООООООООО БЛЯТЬ.


Срд 17 Май 2017 22:20:05
>>153312071
>>153312104
Без хохлов будет не то. Они задавали тон борде.

Срд 17 Май 2017 22:20:08
>>153312067
Вот что делают 16:9 животворящие, да?

Срд 17 Май 2017 22:20:43
>>153311907
Правда. Обезьяна в телеге и твиторе отписал, будет думать как решать это. Бля не дай Бог нам лимиты опять порежут

Срд 17 Май 2017 22:20:44
Web►M



Срд 17 Май 2017 22:20:52
Web►M
>>153312067
1080р - ты это серьезно?


Срд 17 Май 2017 22:21:06
Web►M
>>153312188
Не боись, я всегда с тобой буду, нас не отключат в любом случае


Срд 17 Май 2017 22:21:11
>>153312188
Не могу их различать.

Срд 17 Май 2017 22:21:13
>>153312192
Лолда, форсировал 16:9 формат. Но всё ещё шакалисто вышло. Щас буду шлифовать.

Срд 17 Май 2017 22:21:29
>>153312067
Но зачем?

Срд 17 Май 2017 22:21:29
>>153312152
СХВАТИЛБ ПУЗЫРЬ И УБЕЖАЛ


Срд 17 Май 2017 22:21:30
test

Срд 17 Май 2017 22:22:42
Web►M
Ну давай мой тест хест тоже


Срд 17 Май 2017 22:22:50
Web►M
>>153312231
А у тебя первая вебм лучше была?
Я свою первую до сих пор храню, как синица око.


Срд 17 Май 2017 22:23:02
Web►M
>>153312073
О вкусах не спорят


Срд 17 Май 2017 22:23:20
>>153312048
>Мне теперь любопытно, объясняй. няша
Отъехал на 2х недельный отпуск в дурку по шизе.
Чутка утрировал конечно, чтобы с армией не ебаться, но теперь таблетки должен пить.

Срд 17 Май 2017 22:24:12
>>153311735
Тюльпа.
Её допилили для стима?

Срд 17 Май 2017 22:24:21
Web►M
>>153312377
А не зеницу ока?
>>153312395
Ну да, срачей не бывает


Срд 17 Май 2017 22:24:43
>>153312073
> Постит няруку
> Типо не говноед

Срд 17 Май 2017 22:25:40
Web►M
>>153312482
не


Срд 17 Май 2017 22:25:53
>>153312415
Мне интересно в чем рофл, Хотя с дуркой тоже было любопытно, хотя и знакомо.


Срд 17 Май 2017 22:26:24
>>153312377
Если я просто сконвертировал видео с ютуба в вебм, это считается первой вебмкой?

Срд 17 Май 2017 22:26:46
Web►M
>>153312505
>сидит в блядском
>типо не говноед



Срд 17 Май 2017 22:27:13
Web►M
>>153312650
Двачую этого хуеплета.


Срд 17 Май 2017 22:27:15
>>153312364
Нажимай ресайз и ставь нужное разрешение, у меня так сконвертилось.

>>153312067-кун


Срд 17 Май 2017 22:27:20
Web►M
>>153312377
Сука, у меня почему то неприятные флешбеки каждый раз как я слышу сектор газа. Ебаное юношество


Срд 17 Май 2017 22:27:23
Web►M
>>153312482
Бывают, но я в них не участвую
Всё равно все останутся при своём мнении


Срд 17 Май 2017 22:27:44
Web►M



Срд 17 Май 2017 22:27:52
>>153312621
Не знаю. У меня первая же - ориджинал была.

Срд 17 Май 2017 22:27:52
>>153312377
>А у тебя первая вебм лучше была?
Я свою первую до сих пор храню,
Я никогда сентиментальностью подобной не отличался.
Ну и обосрался с синицы, ничего не скажу конечно

Срд 17 Май 2017 22:28:00
>>153312650
Никогда не настаивал на этой точке зрения.

Срд 17 Май 2017 22:28:10
>>153312679
Я в премьере кодирую. Бля та 1080 это че то дохуя. Мож 720 поставить?

Срд 17 Май 2017 22:28:25
Web►M
>>153312684
Ну так лови ещё!


Срд 17 Май 2017 22:29:16
Web►M
>>153312689
Зачем тебе интернет если ты не любишь срачи?


Срд 17 Май 2017 22:29:21
>>153312742
Да там одни шакалы, 960 максимум, какие 1080


Срд 17 Май 2017 22:29:38
>>153304794
А шо за игорка, друже?

Срд 17 Май 2017 22:29:55
>>153312758
И ещё в догонку.


Срд 17 Май 2017 22:30:12
>>153312586
>Мне интересно в чем рофл
А, ну это вроде проще, чем с дуркой.

Типа Демиург неебаца гений своего дела, а идею о вербовки самого главного человека страны не придумал, а Аинз побив тролля на глазах у императора получил профиты по всем фронтам. Ну и как всегда восхваления владыки.
После того, как написал объяснения о том,
почему мне было рофляно, стало уже совсем не рофляно


Срд 17 Май 2017 22:30:16
>>153304875
А шо за игорка, друже?

Срд 17 Май 2017 22:30:56
>>153312822
Так о том и речь, я вообще мимокрокодил "кодировали всем двачем"
>>153312758
А ей подходит голос. Эта девка могла бы её сейю быть.

Срд 17 Май 2017 22:31:13
Web►M
>>153312839
Dark souls. Их 3 и все годные


Срд 17 Май 2017 22:31:42
Web►M



Срд 17 Май 2017 22:32:22
Web►M
>>153312816
Хех, тут не только же срачи бывают


Срд 17 Май 2017 22:32:53
>>153311833
Ты заставил меня грустить, пойду проверю запасы водки

Срд 17 Май 2017 22:33:47
Web►M
>>153313018
Срачи есть жизнь интернета. Огонь есть начало всего сущего


Срд 17 Май 2017 22:34:35
>>153305693
Нахуй ты палишь...

Срд 17 Май 2017 22:35:16
Web►M
>>153312684



Срд 17 Май 2017 22:35:17
>>153312870
Так там все так сложилось за счет того что он пришел выступать когда он хотел подмазать церковников, даже не в вербовке суть то вроде была. А восхваления доставляют, да. Знатная пушка была с наказанием Шанти и Тараканищем упрашивающим посидеть на нем. Годный у него там каст собрался таки.


Срд 17 Май 2017 22:35:40
Web►M
Хуест


Срд 17 Май 2017 22:35:46
Web►M
>>153312679
>>153312067
Может ролик должен быть 4/3?


Срд 17 Май 2017 22:36:20
>>153313218
>исходник в 16:9
>сжимает в 4:3

Срд 17 Май 2017 22:36:49
>>153305603
Это оригинальный фреймрейт? Даже не так. Оно и в оригинале такое тормознутое триде говно?

Срд 17 Май 2017 22:37:06
>>153313209
Смотрю, профи становишься?

Когда ожидать гатарей в 60фпс с битрейтом в 6к?

Срд 17 Май 2017 22:37:26
Кажись оперу роскомпозор забанил

Срд 17 Май 2017 22:37:27
>>153313244
Исходник 1,333333

Срд 17 Май 2017 22:37:54
>>153313311
хуевый знащщит исходник

Срд 17 Май 2017 22:38:17
Web►M
>>153313183
Все, это последняя капля. Пошел за бухлом.


Срд 17 Май 2017 22:38:20
>>153313244
Ну дак 4^2=16 и 3^2=9
При сжатии все правильно и получается, ты че тупой?

Срд 17 Май 2017 22:38:39
>>153313308
и чё дальше делать будешь?


Срд 17 Май 2017 22:38:41
>>153313293
Чё сказать то хотел?
>>153313341
Какой дали.

Срд 17 Май 2017 22:39:19
Web►M
>>153313209
А вот мой.


Срд 17 Май 2017 22:39:38
>>153313365
хорошо считаешь
>>153313387
>Какой дали.
на торрентах 16:9 дают

Срд 17 Май 2017 22:40:31
>>153313385
На обычную порнуху дрочить, че ещё остается?

Срд 17 Май 2017 22:40:48
>>153313387
>Чё сказать то хотел?
Не знаю, ты должен был проследить за ходом моих мыслей, а потом ответить. Ну а я бы посмотрел на твой ответ.

Срд 17 Май 2017 22:40:48
>>153313244
> пук
Stream #0:0(eng): Video: mpeg2video (Main) (mp4v / 0x7634706D), yuv420p(tv, bt709), 1440x1080 [SAR 4:3 DAR 16:9], 19420 kb/s, 29.97 fps, 29.97 tbr, 30k tbn, 59.94 tbc (default)

Срд 17 Май 2017 22:41:54
>>153313435
Ты пьяный? Я просто хуйнёй тут занимаюсь, анон выложил чё выложил. Делать мне нехуй лакистар щас качать.
>>153313424
Почему у тебя трава зеленее?
>>153313514
Ясн.

Срд 17 Май 2017 22:42:01
>>153313497
ну хз как ты, а я давно уже дрочу на яойные додзи


Срд 17 Май 2017 22:42:53
Web►M



Срд 17 Май 2017 22:43:09
Web►M



Срд 17 Май 2017 22:43:34
>>153313573
>Почему у тебя трава зеленее?
Лол, не знаю, прост перекодил без задней мысли.

Срд 17 Май 2017 22:43:34
>>153313573
И правда зеленее...

Срд 17 Май 2017 22:44:10
Ебать вы гарандюхи


Срд 17 Май 2017 22:44:43
>>153313515
и чего ты мне принес?
какую-то залупу из нулевых с кривым пикселем

Срд 17 Май 2017 22:45:29
>>153313651
Чмоха подпиндосная, где руская озвучка?

Срд 17 Май 2017 22:45:38
Web►M
>>153313700
иди нахуй со своим говном, конфочмо


Срд 17 Май 2017 22:45:42
>>153313729
Уёбище ленивое, проверяй прежде чем делать такое >>153313244 заявление.

Срд 17 Май 2017 22:46:22
>>153313671
>>153313672
Наверное это тупой вопрос, но какая глубина цвета стоит? У меня 8бит

Срд 17 Май 2017 22:46:57
>>153313785
На параше


Срд 17 Май 2017 22:47:41
>>153313797
а анус тебе не проверить?
или тебе не видно, что здесь картинка >>153313218 непропорционально уменьшена по ширине?

Срд 17 Май 2017 22:47:55
>>153313859
Фюить..Ха!

Срд 17 Май 2017 22:47:55
Web►M



Срд 17 Май 2017 22:48:40
Web►M
вкатился с лучшим тайтлом
две недели не заходил,где шапка?


Срд 17 Май 2017 22:48:45
Web►M
Время тупых роллов
чет- мою голову
нечет- ну и насрать, посижу с вами немытычем


Срд 17 Май 2017 22:49:01
>>153313831
Лол, хуй знает.


Срд 17 Май 2017 22:49:42
>>153313959
>не мою голову
Няруко - чуханка.

Срд 17 Май 2017 22:49:42
>>153313959
Если 2 - идёшь нахуй
Если 7 - сосёшь хуй

Срд 17 Май 2017 22:50:00
Web►M
>>153313959
Нужен ты тут 100 лет


Срд 17 Май 2017 22:50:16
Web►M
>>153313950



Срд 17 Май 2017 22:50:18
>>153313950
Почему поется о том, чтобы вернуть былые деньки, но в аниме кадры, которые происходят после событий школы?

Хуйня вебм, отписываюсь от канала.

Срд 17 Май 2017 22:50:25
>>153313950
Как ты заебал везде вставлять эту песню!

Срд 17 Май 2017 22:51:01
Web►M
>>153314058



Срд 17 Май 2017 22:51:48
Web►M
>>153314042
>>153314020
>>153314018
Ладно, пидоры, помоюсь


Срд 17 Май 2017 22:51:49
Web►M
>>153314056



Срд 17 Май 2017 22:51:50
>>153314018
Ну ка я ради интереса щас попробую с 12 сделать.

Срд 17 Май 2017 22:52:44
Web►M



Срд 17 Май 2017 22:52:53
Web►M



Срд 17 Май 2017 22:52:55
>>153314018
>>153314020
>>153314042
Ох, ебать!
Вы это сделали >>153314155

Срд 17 Май 2017 22:53:04
Web►M
>>153314156
накидайте вебм с сильнейшего ученика в истории кеньичи


Срд 17 Май 2017 22:53:39
>>153314158
>>153313972
Промахнулся

Срд 17 Май 2017 22:54:18
Web►M
какая милая девочка


Срд 17 Май 2017 22:54:31
Web►M



Срд 17 Май 2017 22:54:32
Какие советы дадите человеку который только что присоединился к вам?

Срд 17 Май 2017 22:54:52
>>153314288
Интересно, на какой паблик она подписана?

Срд 17 Май 2017 22:54:56
>>153314288
Сестренка - хуйня

Моришима лучшая девочка

Срд 17 Май 2017 22:55:16
Web►M
>>153314302



Срд 17 Май 2017 22:55:20
>>153314302
Не присоединяйся

Срд 17 Май 2017 22:55:21
Web►M
>>153314302
Просись в конфу. Конфа - сила.


Срд 17 Май 2017 22:55:29
Web►M
>>153314302
Беги.


Срд 17 Май 2017 22:55:38
Web►M



Срд 17 Май 2017 22:55:48
>>153314343
А что если я уже есть в конфе?

Срд 17 Май 2017 22:56:11
Web►M



Срд 17 Май 2017 22:56:46
Web►M

Web►M

12(зеленый экран лол) и 10 бит цвет

Срд 17 Май 2017 22:56:51
Web►M
чо так мало лучшего аниме в истории человечества


Срд 17 Май 2017 22:56:55
Web►M
>>153314374
Тогда тебе не здесь стоит спрашивать совета. У вас же есть конфолорды? Вот у них и уточняй.


Срд 17 Май 2017 22:57:20
>>153314420
в 1 трава зеленее, причем заметно

Срд 17 Май 2017 22:57:25
Меня тянет к вам как быть?

Срд 17 Май 2017 22:57:51
>>153314454
вообще нет разницы

Срд 17 Май 2017 22:57:57
>>153314425
>У вас же есть конфолорды? Вот у них и уточняй.
А если я им и являюсь, у кого спрашивать то?

Срд 17 Май 2017 22:58:05
Web►M
>>153314424
лучшая девочка поет лучший оп



Срд 17 Май 2017 22:58:53
Web►M



Срд 17 Май 2017 22:59:09
>>153314454
Да хуй его, всё одинаково вроде. Алсо, у меня на 12 битном цвете на пеке просто зеленый экран был, а тут че-то проигрывается даже.

Срд 17 Май 2017 22:59:17
Web►M
>>153314494
У Создателя наверное. Откуда мне знать такие вещи вообще?


Срд 17 Май 2017 22:59:32
Web►M
Koe no Katachi есть уже на трекерах:?


Срд 17 Май 2017 22:59:42
>>153314335
ты что хотел меня оскорбить?!
падла такое!!!
:)

Срд 17 Май 2017 23:00:04
>>153314420
На первой чуть темнее.


Срд 17 Май 2017 23:00:09
>>153314572
>У Создателя наверное.
Но ведь бога нет

Срд 17 Май 2017 23:00:26
Web►M
>>153314607



Срд 17 Май 2017 23:01:20
Web►M
>>153314634
Ага, а ты просто сам по себе стал конфолордом. Наивняк полнейший.


Срд 17 Май 2017 23:01:26
>>153314632
Ну не скажи


Срд 17 Май 2017 23:01:38
>>153314459
Сперва стоит выучить правила пунктуации, раз уж на то пошло.

Срд 17 Май 2017 23:01:52
>>153314702
да на первой зеленее.

Срд 17 Май 2017 23:02:36
Web►M
>>153314589
вы чо ета


Срд 17 Май 2017 23:02:46
Web►M
>>153314302
не лезь блядь дебил сука ебаный


Срд 17 Май 2017 23:03:05
>>153314702
Хуясе у тебя распидорасило её. Алсо, с чем это связано? Браузер не может в высокую битность цвета?

Срд 17 Май 2017 23:03:34
>>153314702
>>153314632
Я вообще нихуя не догоняю. Одна и та же шебм. В плеере и тут. Почему такие различия?


Срд 17 Май 2017 23:03:37
>>153314779
Хызы, стоит хром

Срд 17 Май 2017 23:04:04
>>153314814
разный раскодировщик

Срд 17 Май 2017 23:04:15
Web►M
кек мда



Срд 17 Май 2017 23:04:50
>>153314860
Надекочка такая милая, забрал бы ее домой

Срд 17 Май 2017 23:05:24
>>153314839
Но ведь вот тут цвет как на пкшном плеере. >>153313424

Срд 17 Май 2017 23:05:32
Web►M
напомните название аниме,забыл


Срд 17 Май 2017 23:05:52
Web►M
>>153314944



Срд 17 Май 2017 23:05:56
Web►M
>>153313950
Он там имел отношения с матерью тян?
Его дочка таки умерла?

Просто давно смотрел очень


Срд 17 Май 2017 23:06:11
Web►M
>>153314962
там еще хуока была


Срд 17 Май 2017 23:07:01
>>153314968
все воскресли.


Срд 17 Май 2017 23:07:05



Срд 17 Май 2017 23:08:10
Web►M
>>153315043



Срд 17 Май 2017 23:09:03
Web►M
>>153315039
Ага, в манямирке Окадзаки.


Срд 17 Май 2017 23:09:17
Web►M
>>153314651



Срд 17 Май 2017 23:09:31
>>153315098
Кининаримас!


Срд 17 Май 2017 23:09:33

Срд 17 Май 2017 23:09:56
Web►M

Web►M

>>153315098
ВАТАЩИ КИНИНАРИМАС

Срд 17 Май 2017 23:09:56
Web►M



Срд 17 Май 2017 23:09:56
Web►M
>>153315150
ты чо епта
там и правда все воскресли


Срд 17 Май 2017 23:10:42

Срд 17 Май 2017 23:10:53



Срд 17 Май 2017 23:10:57
>>153312982
Кокая милота :3

Срд 17 Май 2017 23:11:16
Web►M
>>153315098
ТАЧИЛЬДА БЛЯТЬ


Срд 17 Май 2017 23:11:20
>>153315261
Кто эта симпатичная девочка?

Срд 17 Май 2017 23:11:50
Web►M
>>153315207
Ага, парень просто крышей поехал и выдумал себе другой мирок. Нихуёвое воскрешение, надо бы тоже попробовать.


Срд 17 Май 2017 23:11:58
Web►M
>>153315285



Срд 17 Май 2017 23:12:30
Web►M
>>153315098
Титька ебаная! Чтоб ты сдохла, тварь!


Срд 17 Май 2017 23:12:32

Срд 17 Май 2017 23:12:48
>>153315290
Это мальчик

Срд 17 Май 2017 23:13:01
Web►M
>>153315039
Ох уж эти блядские боги, вмешиваются со своими воскрешениями.
Лучше гг старосту-сеструху-борцуху выбрал


Срд 17 Май 2017 23:13:11
Web►M
>>153315320
все мы потихоньку к этому решению идем.


Срд 17 Май 2017 23:13:14
тут кто-нибудь смотрит фильмы/сериалы? нахуя?

Срд 17 Май 2017 23:13:19
>>153315379
Вранье.

Срд 17 Май 2017 23:13:28

Web►M


Срд 17 Май 2017 23:13:30
>>153315379
Это уже интереснее. Так кто это?

Срд 17 Май 2017 23:13:41
Бля, тред то освятили???

Срд 17 Май 2017 23:13:45
>>153314968
Что происходит?


Срд 17 Май 2017 23:14:05
Web►M
>>153315180
Крипии


Срд 17 Май 2017 23:14:14
Web►M
>>153315448



Срд 17 Май 2017 23:15:07
Web►M
>>153315466
наканецта гонднота
несите больше сатании


Срд 17 Май 2017 23:15:09
>>153315430
Так заорал, что порвал голосовые связки и разбудил кота

Срд 17 Май 2017 23:15:14
Web►M



Срд 17 Май 2017 23:15:28
Web►M
>>153315448



Срд 17 Май 2017 23:16:15
Web►M
>>153315542
Какая же она мразь.


Срд 17 Май 2017 23:16:23
>>153315466
> 921Кб
Bitch please


Срд 17 Май 2017 23:16:57
>>153315481
у неё ухо на щеку заползло

Срд 17 Май 2017 23:17:10
Web►M



Срд 17 Май 2017 23:17:14
Web►M

>>153315604



Срд 17 Май 2017 23:17:27
>>153308162
Отсылка к иисусу теперь охуеть как нова? Гарри Поттер, Звездные Войны, Матрица, хуева тонна аниме проповедующая те же принципы любви, понимания и процветания. Иди нахуй со своей гатарей, во время просмотра чуть пердак не порвало от хуйни, что несут герои.

Срд 17 Май 2017 23:17:34
>>153315645
Это волос

Срд 17 Май 2017 23:17:35
Web►M
>>153315615



Срд 17 Май 2017 23:17:38



Срд 17 Май 2017 23:17:40
Web►M



Срд 17 Май 2017 23:17:44
>>153315604
О, я знаю эту вебм

Срд 17 Май 2017 23:17:47
>>153315656
Ты катанагатари смотрел? Тогда что спрашиваешь?


Срд 17 Май 2017 23:17:59

Срд 17 Май 2017 23:18:02

Срд 17 Май 2017 23:18:43
>>153315671
> чуть пердак не порвало от хуйни
Зато тред смог это сделать

Срд 17 Май 2017 23:18:48
Web►M
>>153315671
Похоже у тебя просто бомбит. Коран читал хоть?


Срд 17 Май 2017 23:19:42
>>153315706
>>153315709
Какой лучше?

Срд 17 Май 2017 23:19:53
>>153315709
И у нас есть победитель

Срд 17 Май 2017 23:19:53
Web►M



Срд 17 Май 2017 23:20:23
>>153315788
>>153315709
Он раньше

Срд 17 Май 2017 23:20:30
>>153315788
Там, где твоя мамаша свой пердак по кругу даёт.

Срд 17 Май 2017 23:20:37
>>153315801
>>153315788
Бог мод разберётся.

Срд 17 Май 2017 23:20:40
>>153315788
Второй пидоский и первый тоже.

Срд 17 Май 2017 23:21:03
Web►M
>>153315802



Срд 17 Май 2017 23:22:37
Web►M
>>153314980
Нет, не было


Срд 17 Май 2017 23:23:02
Web►M
>>153314695



Срд 17 Май 2017 23:23:48
>>153315320
Кстати по аниме так и подумал, только после внки въехал

Срд 17 Май 2017 23:28:17
Web►M
>>153314042
Анончик, я забыл название этой анимы, напомни, молю.


Срд 17 Май 2017 23:29:15
>>153316283
Помолвлена с незнакомцем

Срд 17 Май 2017 23:34:07
>>153315969
>>153314695

Перед кем она светит частями тела?

Срд 17 Май 2017 23:35:59
Web►M
>>153316657
Перед оператором.


Срд 17 Май 2017 23:36:51
>>153316763
Так оператор тот парень который её от гопников спас?

Срд 17 Май 2017 23:37:41
>>153316820
Хуй знает

Срд 17 Май 2017 23:38:07
>>153316886
да-да-да
это он

Срд 17 Май 2017 23:38:10
Web►M



Срд 17 Май 2017 23:41:20
Web►M
>>153316820
>>153316923

Чёрт. Точно


Срд 17 Май 2017 23:43:33
>>153316927
Какой-то розенмейден только не розенмейден

Срд 17 Май 2017 23:47:19
>>153316344
>Помолвлена с незнакомцем
спасибо и добра тебе.

Срд 17 Май 2017 23:56:17
Web►M
>>153317310



Срд 17 Май 2017 23:56:41
>>153318083
горничная розен, а ты не плох

Чтв 18 Май 2017 00:57:39
>>153311759
внезапно проиграл


← К списку тредов